#TITLE:the ketchup song;
#SUBTITLE:;
#ARTIST:Las Ketchup;
#TITLETRANSLIT:;
#SUBTITLETRANSLIT:;
#ARTISTTRANSLIT:;
#CREDIT:;
#BANNER:ketchup-logo.jpg;
#BACKGROUND:ketchup.jpg;
#LYRICSPATH:;
#CDTITLE:Lan.png;
#MUSIC:the ketchup song.mp3;
#OFFSET:-0.020;
#SAMPLESTART:100.000;
#SAMPLELENGTH:12.000;
#SELECTABLE:YES;
#BPMS:0.000=92.510;
#STOPS:;
#BGCHANGES:;
// cache tags:
#FIRSTBEAT:4.000;
#LASTBEAT:211.000;
#SONGFILENAME:Songs/SDO/the ketchup song/the ketchup song.sm;
#HASMUSIC:1;
#HASBANNER:1;
#MUSICLENGTH:142.713;
// end cache tags

//---------------dance-single - sky----------------
#NOTES:
     dance-single:
     sky:
     Medium:
     7:
     0.490,0.647,0.266,0.007,0.399,421.000,38.000,1.000,0.000,27.000:






0000
0000
0000
0000
,
0000
0000
0000
0000
,
0000
0000
0000
0000
,
0000
0000
0000
0000
,
0000
0000
0000
0000
,
0001
0000
0100
0000
1000
0000
0010
0100
0001
0000
1000
0000
0010
0000
0100
0000
,
0010
0000
1000
0100
0010
0000
0100
0000
0001
0000
1000
0000
0000
0000
0000
0000
,
1000
0000
0010
0000
0100
0000
0001
1000
0100
0000
0010
0000
0100
0000
0001
0010
,
1000
0000
0010
0000
0100
0000
1000
0010
0001
0000
0010
0000
0000
0000
0000
0000
,
1000
0000
0100
0000
0001
0000
0010
0100
0001
0000
0010
0000
1000
0010
0001
0000
,
0010
0000
0100
0000
0001
0000
1000
0100
0010
0000
0100
0000
0000
0000
0000
0000
,
0001
0000
0100
0000
0010
0001
1000
0000
0010
0000
0010
0000
0100
0010
0001
0000
,
0100
0000
0100
0000
0001
0010
1000
0000
0010
0000
0100
0000
0000
0000
1000
0001
,
1000
0001
1000
0000
0000
0000
0100
0001
0100
0001
0100
0000
0000
0000
0010
1000
,
0010
1000
0010
0000
0000
0000
0000
0000
0000
0000
0000
0000
0000
0000
0000
0000
,
1011
0000
0000
0000
1101
0000
0010
0000
0010
0000
0001
0000
0010
0100
0001
0000
,
0010
1000
0100
0000
1000
0001
0000
0000
0100
0000
1000
0000
0010
0000
0100
0010
,
0001
0000
0010
1000
0100
0000
1000
0001
0000
0000
0000
0000
0000
0000
0000
0000
,
1101
0000
0000
0000
1011
0000
0100
0000
0100
0000
1000
0000
0010
0000
0100
0010
,
0001
0000
1000
0000
0100
0000
1000
0010
0001
0000
1000
0000
0100
1000
0001
0000
,
0010
0000
0100
0001
0010
0000
1000
0001
0000
0000
0000
0000
0000
0000
0000
0000
,
1011
0000
0000
0000
1101
0000
0010
0000
0010
0000
0001
0000
0010
0000
0001
0100
,
0010
0000
0100
0000
1000
0001
0000
0000
0100
0000
1000
0100
0010
0000
0100
0000
,
0001
1000
0010
0001
0100
0000
1000
0001
0000
0000
0000
0000
0000
0000
0000
0000
,
0000
0000
0000
0000
0000
0000
0000
0000
0001
0010
0100
1000
0100
0010
0001
0010
,
0100
1000
0100
0010
0001
0010
0100
1000
0100
0010
0001
0010
0100
1000
0100
0010
,
0001
0010
0100
1000
0100
0010
0001
0010
0100
1000
0100
0010
0001
0010
0100
1000
,
0100
0010
0001
0010
0100
1000
0110
0000
0001
1000
0100
0000
0010
0000
1000
0010
,
0001
0000
0010
1000
0100
0010
1000
0000
0010
0000
0100
1000
0010
0001
1000
0000
,
1111
0000
0110
0000
0000
0000
0000
0000
1000
0100
0010
0000
0100
1000
0001
0000
,
0010
0000
0010
0001
1000
0000
1000
0000
0001
0010
0100
0010
1000
0000
0010
0000
,
1000
0100
0010
0000
0000
0000
0000
0000
1011
0000
0101
0000
1101
0000
1001
0000
,
1011
1100
1101
0101
1011
0101
1011
1010
,
1101
0000
1111
0000
0000
0000
0000
0000
0001
0100
0010
0000
0001
1000
0010
0001
,
0100
0001
1000
0000
0001
0100
0010
0001
0100
1000
0010
0100
0001
0000
1000
0000
,
1011
0000
1101
0000
0001
0000
0010
0100
0100
0001
0001
1000
1000
0100
0100
0010
,
0010
0000
1000
0100
0010
0010
0001
0010
0010
0100
2000
0000
0000
0000
0000
0000
,
0000
0000
3000
0000
1011
0000
1101
0100
,
0010
1000
0001
0000
0100
0000
0010
0001
1000
0000
0010
0000
0100
0010
0001
0000
,
0010
0000
0100
0001
1000
0000
0001
0000
0100
0000
0010
0100
1000
0000
0001
1000
,
0000
0000
0000
0000
1101
0000
1011
0010
,
0100
1000
0010
0000
1000
0000
0010
0001
0100
0000
0001
0000
0001
0010
0100
0000
,
0001
0000
1000
0000
0010
0001
0100
0000
0001
1000
0010
0000
0100
0000
1000
1001
,
0000
0000
0000
0000
1011
0000
1001
0100
,
0100
0000
0001
0000
0010
0000
0001
0100
0010
0000
0100
0000
1000
0001
0000
0000
,
0100
0000
1000
0001
0010
0000
0100
0000
0001
0000
0010
0001
0100
0000
1000
0001
,
0000
0000
0000
0000
1110
0000
0110
0001
,
0010
0000
0001
0100
0010
0000
0100
0000
0010
0000
0100
0001
1000
0000
0100
0000
,
0010
0000
0100
1000
0001
0000
0010
0000
0100
0000
1000
0001
0010
0000
0100
0010
,
0000
0000
0000
0000
0000
0010
0100
0000
1011
0000
0000
0000
1101
0000
0000
0100
,
0010
0000
0000
0000
0001
0000
0100
0000
0010
0000
1000
0001
0010
0000
0100
0000
,
0010
0000
0001
1000
0010
0000
0100
0000
1000
0000
0100
0001
0010
0000
0001
1000
,
0000
0000
1101
1111
;

//---------------dance-single - 标准----------------
#NOTES:
     dance-single:
     标准:
     Hard:
     9:
     0.976,1.000,1.000,0.434,0.946,619.000,220.000,62.000,0.000,64.000:

0000
0000
0000
0000
,
1110
0000
1100
0000
1000
0100
0010
0000
0111
0000
0011
0000
0001
0010
0100
0000
,
1110
0000
1100
0000
1000
0100
0010
0000
0111
0000
0011
0000
0001
0010
0100
0000
,
1110
0000
1100
0000
1000
0100
0010
0000
0111
0000
0011
0000
0001
0010
0100
0000
,
1110
0000
1100
0000
1000
0100
0010
0000
0111
0000
0011
0000
0001
0010
0100
0000
,
0001
0010
0100
1000
0100
0010
0100
0010
0001
0010
0100
1000
0100
0010
0100
0010
,
0010
0001
1000
0100
0010
0001
0200
0300
0002
0003
0000
1000
0000
0000
0000
0000
,
1000
0100
0010
0001
0010
0100
0010
0100
1000
0100
0010
0001
0100
0010
0001
1000
,
1000
0100
0010
0001
0100
0010
2000
3000
0002
0003
0000
0010
0000
0000
0000
0000
,
1001
0100
1100
0010
0011
1000
0110
0001
0011
1000
0110
0001
1001
0100
0011
1000
,
0110
0001
1100
0010
0011
1000
2000
3000
0020
0030
0100
0000
0000
0000
0000
0000
,
1100
1000
1100
0100
0110
0010
0110
0010
0011
0001
0011
0001
1100
1000
1100
0100
,
0110
0010
0110
0010
0011
1000
2202
3303
0020
0030
0010
0000
0000
0000
1000
1000
,
2222
3333
1000
0000
0000
0000
0100
0100
2222
3333
0100
0000
0000
0000
0010
0010
,
2222
3333
2222
0000
0000
0000
0000
0000
0000
0000
0000
0000
3333
0000
0000
0000
,
1011
0000
0000
0000
1101
0000
0010
0001
0010
0100
1000
0100
0010
0100
0010
0100
,
0010
0001
0010
0100
1000
0100
1000
0100
0010
0001
0010
0100
1000
0100
0010
0001
,
0010
0100
0010
0001
0100
0010
1000
0100
0000
0000
0000
0000
0000
0100
0110
0000
,
1101
0000
0000
0000
1011
0000
0100
0010
0100
0010
0001
0010
0100
1000
0100
0010
,
0001
0010
0100
0010
0100
1000
0100
0010
0001
1000
1000
0100
0100
0010
0001
1000
,
0010
0001
0100
0010
0010
0001
1000
0001
0000
0000
0000
0000
0000
0010
0110
0000
,
1011
0000
0000
0000
1101
0000
0001
0010
0001
0010
0001
0010
0001
0010
0001
0010
,
1000
0100
1000
0100
1000
0100
1000
0100
1000
0100
0010
0100
0010
0100
0010
0100
,
0010
0001
0010
0001
0100
0010
1000
0001
0000
0000
0000
0000
1100
0110
0011
0110
,
1100
0110
0011
0110
1100
0110
0011
0110
0101
0010
0100
1000
0101
0010
0001
0010
,
0101
1000
0100
0010
0101
0010
0100
1000
0101
0010
0001
0010
0101
1000
0100
0010
,
0101
0010
0100
1000
0101
0010
0001
0010
0101
1000
0100
0010
0101
0010
0100
1000
,
0101
0010
0001
0010
0101
1000
0110
0000
0101
1000
0100
0010
0010
0001
1000
0100
,
0001
1000
0010
0001
0100
0010
1000
0100
0010
0001
0100
0010
0010
0001
2000
3000
,
2222
3333
0000
0110
0000
0000
0000
0000
1000
0100
0010
0001
0100
0010
0001
1000
,
0010
0001
0010
0001
1000
0100
1000
0100
0001
1000
0100
0010
1000
0100
0020
0030
,
2222
3333
0000
0110
0000
0010
0110
0000
1011
0100
0111
1000
1101
0010
1110
0001
,
1011
0100
0111
1000
1101
0010
1110
0001
1011
0100
0111
1000
1101
0010
1110
0001
,
2222
3333
1111
0000
0000
0000
1000
0100
0001
1000
0010
0001
0001
1000
0010
0001
,
0100
0010
1000
0100
0001
1000
0010
0001
0100
0010
0010
0001
0001
1000
1000
0000
,
2022
3033
2202
3303
0000
0000
2020
0000
3030
0000
0202
0000
0303
0000
2020
0000
,
3030
0000
0202
0000
0303
0000
2020
3030
0202
0303
2222
0000
0000
0000
0000
0000
,
0000
0000
3333
0000
0000
0010
0110
0000
1011
0000
0000
0000
1101
0000
0100
0010
,
1100
1000
1100
0100
0110
0010
0110
0010
0011
0001
0011
0001
1100
1000
1100
0100
,
0110
0010
0110
0010
0011
0001
0011
0001
0011
0001
0011
0010
0110
0010
0110
1001
,
0000
0000
0000
0000
0000
0100
0110
0000
1101
0000
0000
0000
1011
0000
0010
0001
,
0011
0001
0011
0010
0110
0010
0110
0100
1100
0100
1100
1000
1100
0100
1100
0100
,
0110
0010
0110
0010
0011
0001
0011
0010
0110
0010
0110
0100
1100
0100
1100
1001
,
0000
0000
0000
0000
0000
0010
0110
0000
1011
0000
0000
0000
1001
0000
0100
0010
,
0101
0110
0101
0110
1010
0011
0101
1100
1010
0011
0101
0110
1010
0011
1010
1100
,
0101
0110
1010
1100
1010
0011
0101
0110
0101
1001
1010
0011
0101
0110
1010
0110
,
0000
0000
0000
0000
0000
0010
0011
0000
1110
0000
0000
0000
0110
0000
0001
1000
,
1110
0101
0111
1010
1011
0101
1101
1010
1110
0101
0111
1010
1011
0101
0111
1010
,
1110
0101
1101
1010
0111
1010
1110
0101
1101
1010
1011
0101
1110
0101
1101
0110
,
0000
0000
0000
0000
0000
0010
0100
0000
1011
0000
0000
0000
1101
0000
0000
1000
,
0100
0010
0001
0001
0010
0100
1000
1000
0100
0010
0001
0001
0010
0100
1000
0000
,
0010
0001
0010
0100
1000
0100
0010
0001
,
0000
0000
0000
0000
0000
0010
0110
0000
1101
0000
0000
0000
1111
0000
0000
0000
;
